#TITLE:M.A.G.I.C speed ball;
#SUBTITLE:(ft good-cool);
#ARTIST:Teranoid & MC Natsack;
#TITLETRANSLIT:;
#SUBTITLETRANSLIT:;
#ARTISTTRANSLIT:;
#CREDIT:;
#BANNER:speedball-bn.png;
#BACKGROUND:speedball-bg.png;
#LYRICSPATH:;
#CDTITLE:!12title!.png;
#MUSIC:Teranoid & MC Natsack - M.A.G.I.C speed ball (ft good-cool).mp3;
#OFFSET:-4.014;
#SAMPLESTART:56.780;
#SAMPLELENGTH:12.000;
#SELECTABLE:YES;
#BPMS:0.000=150.000,32.000=300.000,164.000=150.000,168.000=299.999,176.000=150.000,180.000=300.000,188.000=150.000,192.000=300.000,200.000=150.000,204.000=300.000,210.000=150.000,211.000=300.000,275.000=37.500,276.000=150.000,312.000=152.000,314.000=154.000,316.000=155.000,318.000=168.000,322.000=175.000,324.000=180.000,326.000=185.000,328.000=192.000,330.000=198.000,332.000=205.000,336.000=211.000,338.000=219.000,340.000=224.000,342.000=230.000,344.000=235.000,346.000=249.000,348.000=257.000,350.000=270.000,352.000=286.000,354.000=300.000,356.000=314.000,358.000=325.000,360.000=340.000,362.000=360.000,364.000=410.000,366.000=460.000,368.000=477.000,370.000=520.000,372.000=570.000,374.000=600.000,376.000=640.000,378.000=700.000,380.000=780.000,382.000=810.000,384.000=850.000,386.000=890.000,388.000=960.000,390.000=1000.000,392.000=1070.000,394.000=1100.000,396.000=1150.000,398.000=1200.000,400.000=1270.000,404.000=1380.000,406.000=1420.000,408.000=1460.000,410.000=1500.000,412.000=1540.000,414.000=1600.000,416.000=1670.000,418.000=1750.000,420.000=1780.000,422.000=1830.000,424.000=1900.000,428.000=2000.000,432.000=2100.000,436.000=2200.000,440.000=2300.000,444.000=2400.000,448.000=2500.000,452.000=2600.000,456.000=2700.000,460.000=2800.000,464.000=2900.000,468.000=3000.000,472.000=3200.000,480.000=3400.000,488.000=3600.000,536.000=150.000,559.000=300.000,561.000=37.500,562.000=150.000,564.000=300.000,628.000=600.000,632.000=300.000,696.000=37.500,697.000=150.000;
#STOPS:32.000=0.800
,628.250=0.050
,628.750=0.050
,629.250=0.050
,629.750=0.050
,630.250=0.050
,630.750=0.050
,631.250=0.050
,631.750=0.050
;
#BGCHANGES:;
// cache tags:
#FIRSTBEAT:0.000;
#LASTBEAT:701.375;
#SONGFILENAME:Songs/Music V.I.P ^_^/M.A.G.I.C Speed Ball/M.A.G.I.C speed ball.sm;
#HASMUSIC:1;
#HASBANNER:1;
#MUSICLENGTH:149.768;
// end cache tags

//---------------dance-single - ----------------
#NOTES:
     dance-single:
     :
     Hard:
     15:
     1.000,1.000,1.000,0.167,0.921,1339.000,365.000,25.000,28.000,5.000:
0110
1000
1000
0010
1000
1000
0010
1000
0010
1000
1000
0010
0000
0000
0001
0000
,
0110
1000
1000
0010
1000
1000
0010
1000
0010
1000
1000
0010
0000
0000
0100
0000
,
0110
1000
1000
0010
1000
1000
0010
1000
0010
1000
1000
0010
0000
0000
0001
0000
,
0110
1000
1000
0010
1000
1000
0010
1000
0010
1000
1000
0100
0000
0000
0001
0000
,
0110
1000
1000
0010
1000
1000
0010
1000
0010
1000
1000
0010
0000
0000
0001
0000
,
0110
1000
1000
0010
1000
1000
0010
1000
0010
1000
1000
0010
0000
0000
0100
0000
,
0110
1000
1000
0010
1000
1000
0010
1000
0110
1000
1000
0010
0000
0000
0001
0000
,
0110
1000
1000
0010
1100
1000
0010
1000
0110
1001
1010
0101
1000
0100
1001
0100
,
1M11
M2MM
0000
0000
0000
0000
0000
0000
0000
0000
0000
0000
0000
0000
0000
0000
0000
0000
0000
0000
0000
0000
0000
0000
0000
0000
0000
0000
0000
0000
0000
0300
1000
0000
0000
0000
0001
0000
0000
0000
1000
0000
0000
0000
0001
0000
0000
0000
1000
0000
0000
0000
0001
0000
0000
0000
1000
0000
0000
0000
0001
0000
0000
0000
,
1010
0100
1001
0010
0101
1000
0110
1000
,
0011
0100
1001
0010
0100
0000
1001
0000
,
1010
0100
1001
0010
0101
1000
0110
1000
,
0011
0100
1001
0010
1000
0001
0110
0001
,
1010
0100
1001
0010
0101
1000
0110
1000
,
0011
0100
1001
0010
0100
0000
0101
0000
,
1010
0100
1001
0010
0101
1000
0110
1000
,
0011
1100
0010
0101
0000
0010
0001
0100
,
1010
0100
1001
0010
0101
1000
0110
1000
,
0011
0100
1001
0010
0100
0000
1001
0000
,
1010
0100
1001
0010
0101
1000
0110
1000
,
0011
0100
1001
0010
1000
0100
0011
0100
,
1010
0100
1001
0010
0101
1000
0110
1000
,
0011
0100
1001
0010
0100
0000
1001
0000
,
1010
0100
1000
0110
0101
1000
1010
1100
,
0011
0100
1010
0101
0000
0010
1001
0000
,
1010
0100
1001
0010
0101
1000
0110
1000
,
0011
0100
1001
0010
0100
0000
1001
0000
,
1010
0100
1001
0010
0101
1000
0110
1000
,
0011
0100
1001
0010
1000
0001
0110
0001
,
1010
0100
1001
0010
0101
1000
0110
1000
,
0011
0100
1001
0010
0100
0000
0101
0000
,
1010
0100
1001
0010
0101
1000
0110
1000
,
0011
1100
0010
0101
0000
0010
0001
0100
,
1010
0100
1001
0010
0101
1000
0110
1000
,
0011
0100
1001
0010
0100
0000
1001
0000
,
1010
0100
1001
0010
0101
1000
0110
1000
,
0011
0100
1001
0010
1000
0100
0011
0100
,
1010
0100
1001
0010
0101
1000
0110
1000
,
0011
0100
1001
0010
0100
0000
1001
0000
,
1010
0100
1000
0110
0101
1000
1010
1100
,
0011
0100
1010
0101
0000
0010
1001
0000
,
0110
1000
1001
0110
1001
1000
0011
1100
0011
1100
1001
0110
0001
0000
0100
0000
,
1010
0110
1100
0011
0101
1001
0010
1001
,
0110
0000
1101
0000
1001
0100
1010
0001
0100
0000
0010
0000
0101
0000
1000
0000
,
0110
1000
1001
0110
1001
1000
0011
1100
0011
1100
1001
0110
0001
0000
0100
0000
,
1010
0101
1000
0011
0100
1001
0010
1100
,
0001
0000
0000
0010
0000
0000
0101
0000
0000
1010
0000
0000
0001
0000
0000
0000
0110
0000
0000
0000
0100
1000
0000
0000
,
0110
1000
1001
0110
1001
1000
0011
1100
0011
1100
1001
0110
0001
0000
0100
0000
,
1010
0110
1001
0010
1100
1010
0011
1000
,
0011
0000
1010
0000
0101
0000
1000
0000
0011
0100
1010
0001
1100
0001
1010
0001
,
0110
1000
1001
0110
1001
1000
0011
1100
0011
1100
1001
0110
0001
0000
0100
0000
,
1100
0000
0000
1010
0011
0000
1100
1010
,
0011
0000
0000
0000
0000
0000
0000
0000
0000
0000
0000
0000
0110
0000
0000
0000
0000
0000
1100
0000
0000
0000
0000
0000
0002
0003
0000
0000
0020
0030
0000
0000
0200
0300
0000
0000
1010
0000
0000
0000
0000
0000
0100
0000
0000
0000
0000
0000
,
1001
0010
0101
1000
0110
1000
0011
0100
,
1001
0010
0100
0000
1001
0000
1010
0100
,
1001
0010
0101
1000
0110
1000
0011
0100
,
1001
0010
1000
0001
0110
0001
1010
0100
,
1001
0010
0101
1000
0110
1000
0011
0100
,
1001
0010
0100
0000
0101
0000
1010
0100
,
1001
0010
0101
1000
0110
1000
0011
1100
,
0010
0101
0000
0010
0001
0100
1010
0100
,
1001
0010
0101
1000
0110
1000
0011
0100
,
1001
0010
0100
0000
1001
0000
1010
0100
,
1001
0010
0101
1000
0110
1000
0011
0100
,
1001
0010
1000
0100
0011
0100
1010
0100
,
1001
0010
0101
1000
0110
1000
0011
0100
,
1001
0010
0100
0000
1001
0000
1010
0100
,
1000
0110
0101
1000
1010
1100
0011
0100
,
1010
0000
0000
0000
0000
0000
0000
0000
0101
0000
0000
0000
0000
0000
0000
0000
1000
0000
0000
0000
0000
0000
0000
0000
0010
0000
0000
0000
0000
0000
0000
0000
1001
0000
0000
0000
0000
0000
0000
0000
0100
0000
0000
0000
0000
0000
0000
0000
2000
0000
0000
0000
0000
0000
0000
0000
0000
0000
0000
0000
0000
0000
0000
3000
,
2010
3000
0100
0000
0010
0000
0100
0000
2010
3000
0100
0000
0010
0000
0100
0000
2011
3000
0100
0000
0011
0000
0100
0000
2011
3000
0100
0000
0011
0000
0100
0000
,
1000
0001
1000
0001
1000
0001
1000
0001
,
1000
0000
0001
0000
1000
0000
0001
0000
1000
0000
0001
0000
0100
0000
0001
1000
,
1000
0001
1000
0001
1000
0001
1000
0001
,
1000
0000
0000
0000
0001
0000
0000
0000
0200
0000
0000
0300
1000
0000
0100
0000
0010
0000
0000
0000
0001
0000
0000
0000
0100
0000
0000
0000
0001
0000
0000
0000
,
1000
0001
1000
0001
1000
0001
1000
0001
,
1000
0000
0001
0000
1000
0000
0001
0000
1000
0000
0001
0000
0100
0000
0001
1000
,
1000
0001
1000
0001
1000
0001
1000
0011
,
1200
0000
0000
0000
0300
0000
0001
0000
0000
0010
0000
0000
00M0
0000
0000
0000
0000
0000
0000
0000
0000
0000
0000
0000
1000
0000
0000
0000
0000
0000
1001
0000
0000
0010
0000
0000
00M0
0000
0000
0000
0000
0000
0000
0000
0000
0000
0000
0000
,
1000
0001
1000
0001
1000
0001
1000
0001
,
1000
0000
0001
0000
1000
0000
0001
0000
1000
0000
0001
0000
0100
0000
0001
1000
,
1000
0001
1000
0001
1000
0001
1000
0001
,
1000
0000
0000
0000
0001
0000
0000
0000
0200
0000
0000
0300
1000
0000
0100
0000
0010
0000
0000
0000
0001
0000
0000
0000
0100
0000
0000
0000
0001
0000
0000
0000
,
1000
0001
1000
0001
1000
0001
1000
0001
,
1000
0000
0001
0000
1000
0000
0001
0000
1000
0000
0001
0000
0100
0000
0001
1000
,
1000
0001
1000
0001
1000
0001
1000
0011
,
1200
0000
0000
0000
0300
0000
0001
0000
0000
0010
0000
0000
00M0
0000
0000
0000
0000
0000
0000
0000
0000
0000
0000
0000
1000
0000
0000
0000
0000
0000
1001
0000
0000
0010
0000
0000
00M0
0000
0000
0000
0000
0000
0000
0000
0000
0000
0000
0000
,
1000
0001
1000
0001
1000
0001
1000
0001
,
1000
0000
0001
0000
1000
0000
0001
0000
1000
0000
0001
0000
0100
0000
0001
1000
,
1000
0001
1000
0001
1000
0001
1000
0001
,
1000
0000
0000
0000
0001
0000
0000
0000
0200
0000
0000
0300
1000
0000
0100
0000
0010
0000
0000
0000
0001
0000
0000
0000
0100
0000
0000
0000
0001
0000
0000
0000
,
1000
0001
1000
0001
1000
0001
1000
0001
,
1000
0000
0001
0000
1000
0000
0001
0000
1000
0000
0001
0000
0100
0000
0001
1000
,
1000
0001
1000
0001
1000
0001
1000
0011
,
1200
0000
0000
0000
0300
0000
0001
0000
0000
0010
0000
0000
00M0
0000
0000
0000
0000
0000
0000
0000
0000
0000
0000
0000
1000
0000
0000
0000
0000
0000
1001
0000
0000
0010
0000
0000
00M0
0000
0000
0000
0000
0000
0000
0000
0000
0000
0000
0000
,
1000
0001
1000
0001
1000
0001
1000
0001
,
1000
0000
0001
0000
1000
0000
0001
0000
1000
0000
0001
0000
0100
0000
0001
1000
,
1000
0001
1000
0001
1000
0001
1000
0001
,
1000
0000
0000
0000
0001
0000
0000
0000
0200
0000
0000
0300
1000
0000
0100
0000
0010
0000
0000
0000
0001
0000
0000
0000
0100
0000
0000
0000
0001
0000
0000
0000
,
1000
0001
1000
0001
1000
0001
1000
0001
,
1000
0000
0001
0000
1000
0000
0001
0000
1000
0000
0001
0000
0100
0000
0001
1000
,
1000
0001
1000
0001
1000
0001
1000
0011
,
1200
0000
0000
0000
0300
0000
0001
0000
0000
0010
0000
0000
00M0
0000
0000
0000
0000
0000
0000
0000
0000
0000
0000
0000
1000
0000
0000
0000
0000
0000
1001
0000
0000
0010
0000
0000
00M0
0000
0000
0000
0000
0000
0000
0000
0000
0000
0000
0000
,
2000
0000
0000
0000
,
0000
0000
0000
0000
,
0000
0000
0000
0000
,
0000
0000
0000
0000
,
0000
0000
0000
0000
,
0000
0000
0000
0000
,
0000
0000
0000
0000
,
0000
0000
0000
0000
0000
0000
0000
0000
0000
0000
0000
0000
0000
0000
0000
0000
0000
0000
0000
0000
0000
0000
0000
0000
0000
0000
0000
0000
0000
0000
0000
0000
0000
0000
0000
0000
0000
0000
0000
0000
0000
0000
0000
0000
0000
0000
0000
0000
0000
0000
0000
0000
0000
0000
0000
0000
0000
0000
0000
0000
0000
0000
0000
3000
,
0200
0000
0000
0000
,
0000
0000
0000
0000
,
0000
0000
0000
0000
,
0000
0000
0000
0000
,
0000
0000
0000
0000
,
0000
0000
0000
0000
,
0000
0000
0000
0000
,
0000
0000
0000
0000
0000
0000
0000
0000
0000
0000
0000
0000
0000
0000
0000
0000
0000
0000
0000
0000
0000
0000
0000
0000
0000
0000
0000
0000
0000
0000
0000
0000
0000
0000
0000
0000
0000
0000
0000
0000
0000
0000
0000
0000
0000
0000
0000
0000
0000
0000
0000
0000
0000
0000
0000
0000
0000
0000
0000
0000
0000
0000
0000
0300
,
0020
0000
0000
0000
,
0000
0000
0000
0000
,
0000
0000
0000
0000
,
0000
0000
0000
0000
,
0000
0000
0000
0000
,
0000
0000
0000
0000
,
0000
0000
0000
0000
,
0000
0000
0000
0000
0000
0000
0000
0000
0000
0000
0000
0000
0000
0000
0000
0000
0000
0000
0000
0000
0000
0000
0000
0000
0000
0000
0000
0000
0000
0000
0000
0000
0000
0000
0000
0000
0000
0000
0000
0000
0000
0000
0000
0000
0000
0000
0000
0000
0000
0000
0000
0000
0000
0000
0000
0000
0000
0000
0000
0000
0000
0000
0000
0030
,
0002
0000
0000
0000
,
0000
0000
0000
0000
,
0000
0000
0000
0000
,
0000
0000
0000
0000
,
0000
0000
0000
0000
,
0000
0000
0000
0000
,
0000
0000
0000
0000
,
0000
0000
0000
0000
0000
0000
0000
0000
0000
0000
0000
0000
0000
0000
0000
0000
0000
0000
0000
0000
0000
0000
0000
0000
0000
0000
0000
0000
0000
0000
0000
0000
0000
0000
0000
0000
0000
0000
0000
0000
0000
0000
0000
0000
0000
0000
0000
0000
0000
0000
0000
0000
0000
0000
0000
0000
0000
0000
0000
0000
0000
0000
0000
0003
,
0011
0100
1000
0001
0010
0100
0001
0010
1000
0001
0100
1000
0010
1000
0001
0000
,
0011
0100
1000
0001
0010
0100
0001
0010
1000
0001
0100
1000
0001
0100
0010
1000
,
0011
0100
1000
0001
0010
0100
0001
0010
1000
0001
0100
1000
0010
1000
0001
0000
,
0011
0100
1000
0001
0010
0100
0001
0010
1100
0001
0110
1000
0101
1100
0011
1000
,
0011
0100
1000
0001
0010
0100
0001
0010
1000
0001
0100
1000
0010
1000
0001
0000
,
0011
0100
1000
0001
0010
0100
0001
0010
1000
0001
0100
1000
0011
1000
0101
1000
,
0110
0000
0000
0000
0001
0000
0000
0000
1100
0000
0000
0000
0001
0000
0000
0000
2110
0000
0000
0000
0000
0000
0000
0000
0000
0000
0000
0000
0000
0000
0000
0000
0010
0000
0000
0000
0000
0000
0000
0000
0000
0000
0000
0000
0000
0000
0000
0000
0010
0000
0000
0000
0000
0000
0000
0000
0000
0000
0000
0000
0000
0000
0000
3000
,
0001
0000
1000
0000
0001
0000
1000
0000
0001
0000
1000
0000
0001
1000
0001
1000
,
0011
0100
1010
0001
1010
0100
1001
0010
,
1100
0001
0110
1000
0011
1000
0101
0000
,
0011
0100
1010
0001
1010
0100
1001
0010
,
1100
0001
0110
1000
0011
1100
0010
1100
,
0011
0100
1010
0001
1010
0100
1001
0010
,
1100
0001
0110
1000
0011
1000
0101
0000
,
1010
0000
0000
0101
0011
0000
1000
0100
,
0001
0000
0100
0010
0000
0001
0100
0000
,
0011
0100
1000
0101
0010
0100
1001
0010
,
1100
0001
0100
1001
0010
1000
0101
0000
,
0011
0100
1000
0101
0010
0100
1001
0010
,
1100
0001
0100
1010
0101
1100
0010
1100
,
0011
0100
1000
0101
0010
0100
1001
0010
,
1100
0001
0100
1001
0010
1000
0101
0000
,
0110
1000
1000
0101
1000
1000
0011
1000
,
11MM
11MM
1M1M
1M1M
M11M
M11M
M1M1
M1M1
,
0010
0000
1000
0000
0010
0000
1000
0000
0010
0000
1000
0000
0001
0100
0001
0100
,
0010
0000
1000
0000
0010
0000
1000
0000
0001
0000
1000
0000
0001
0000
1000
0000
0010
0000
0100
0000
0010
0000
0100
0000
0001
0010
0100
1000
0001
0010
0100
1000
,
0001
0000
0000
0000
0100
0000
0000
0000
0001
0000
1000
0000
0100
0000
0000
0000
0001
0000
0000
0000
0100
0000
0000
0000
0001
0010
0100
1000
0001
0010
0100
0000
,
0001
1000
0001
1000
0000
0000
0000
0000
0010
1000
0010
1000
0001
0100
0001
0100
,
0010
0000
0000
0000
1000
0000
0000
0000
0010
0000
0000
0000
0001
0000
0010
0000
0100
0000
0000
0000
1000
0000
0010
0000
1000
0000
0000
0000
0001
0010
0100
1000
,
0001
0000
0000
1000
0001
0000
1000
0000
0001
0000
1000
0000
0001
0000
0100
0000
,
1000
0000
0000
0000
0010
0000
0000
0000
1000
0000
0000
0000
0010
0000
0000
0000
0100
0000
0000
0000
0001
0000
0000
0000
0100
0000
0000
0000
0001
0000
0000
0000
1000
0000
0100
0000
0010
0000
0001
0000
1000
0000
0100
0000
0010
0000
0001
0000
1000
0000
0100
0000
0010
0000
0002
0003
1000
0000
0100
0000
0010
0000
0001
0000
,
0100
0000
0000
0000
1000
0000
0000
0000
0001
0000
0000
0000
0010
0000
0000
0000
1000
0100
0010
0001
1000
0000
0000
0000
0100
0000
0000
0000
0000
0000
0001
0000
,
1000
0001
1000
0001
1000
0001
1000
0001
,
1000
0000
0001
0000
1000
0000
0001
0000
1000
0000
0001
0000
1000
0010
0000
0010
,
1000
0001
1000
0001
1000
0001
1000
0001
,
1000
0000
0000
0000
0001
0000
0000
0000
1000
0000
0000
0000
0001
0000
0010
0000
1000
0000
0001
0010
0100
0000
1000
0100
0010
0000
0001
0010
0100
0000
1000
0000
,
0001
1000
0001
1000
0001
1000
0001
1000
0001
1000
0001
1000
0001
1000
0001
1000
,
0001
1000
0001
1000
0001
1000
0001
1000
0001
1000
0001
1000
0001
1000
0001
1000
,
0001
1000
0001
1000
0001
1000
0001
1000
0001
1000
0001
1000
0001
1000
0001
1000
,
0001
0010
0100
1000
0001
0010
0100
1000
0001
0010
0100
1000
0001
0010
0100
1000
0001
0010
0100
1000
0001
0010
0100
1000
0001
0010
0100
1000
0001
0010
0100
1000
,
0002
1000
1000
1000
,
1000
0000
0000
0000
0000
0000
0000
0000
0000
0000
0000
0000
0000
0000
0000
0003
1002
0000
0000
0000
0000
0000
0003
0000
0000
0000
0000
0000
0000
0000
0000
0000
0000
0000
0000
0000
0000
0000
0000
0000
0000
0000
0000
0000
0000
0000
0000
0000
0000
0000
0000
0000
0000
0000
0000
0000
0000
0000
0000
0000
0000
0000
0000
0000
;
